#TITLE:Happy Birthday;
#SUBTITLE:;
#ARTIST:News;
#TITLETRANSLIT:Happy Birthday;
#SUBTITLETRANSLIT:;
#ARTISTTRANSLIT:News;
#CREDIT:Thu Tu , 11-2-2009;
#BANNER:Happy Birthday-bn.png;
#BACKGROUND:Happy Birthday-bg.png;
#LYRICSPATH:;
#CDTITLE:pm4cd.png;
#MUSIC:Happy Birthday.mp3;
#OFFSET:0.780;
#SAMPLESTART:89.400;
#SAMPLELENGTH:20.000;
#SELECTABLE:YES;
#BPMS:0.000=120.020;
#STOPS:;
#BGCHANGES:;
// cache tags:
#FIRSTBEAT:4.000;
#LASTBEAT:451.000;
#SONGFILENAME:Songs/Music V.I.P ^_^/Happy Birthday/Happy Birthday.sm;
#HASMUSIC:1;
#HASBANNER:1;
#MUSICLENGTH:229.208;
// end cache tags

//---------------dance-single - ----------------
#NOTES:
     dance-single:
     :
     Hard:
     20:
     1.000,1.000,1.000,1.000,0.901,1258.000,480.000,292.000,0.000,285.000:
0000
0000
0000
0000
,
1001
0000
0000
0110
0000
0000
0100
0000
0000
0000
0010
0000
0010
0000
1001
0000
,
0110
0000
0000
1001
0000
0000
1000
0000
0000
0000
0001
0000
1001
0000
1000
0000
,
1100
0000
0000
1010
0000
0000
0110
0000
0000
0000
0101
0000
0001
0000
0011
0000
,
0101
0000
0000
0100
0000
0000
0110
0000
1001
0000
1000
0000
1100
0000
0011
0000
,
1002
0010
0100
0023
1000
0100
2031
0000
3001
0010
2001
0100
3012
1000
0123
0000
,
1032
0000
1000
2013
0100
0001
3120
0000
0131
0000
0102
0010
1023
0100
2130
0000
,
3201
0000
0001
2300
0010
0001
3102
0000
1103
0000
2001
0010
3201
0001
2310
0000
,
3201
0000
0001
2310
0010
0100
3201
0000
1301
0000
2000
0100
3102
0010
1203
0000
,
2310
0000
0010
3102
0010
1000
0213
0000
1310
0000
2100
0010
3021
0100
2031
0000
,
3201
0000
0001
2310
0010
0001
3102
0000
0113
0000
0210
0001
2310
0001
3102
0000
,
0213
0000
0010
1302
0100
1000
0123
0000
2130
0000
0201
0010
0312
0100
0123
0000
,
0231
0001
0010
0312
0010
0000
0213
0001
0310
0100
3012
0100
1203
0000
2301
0000
,
3110
0000
0000
0010
0000
0000
1010
0000
0000
0000
1001
0000
0110
0000
1000
0001
,
1001
0000
0000
0110
0000
0000
1010
0000
0000
0000
0001
0100
1010
0000
0100
0010
,
0110
0000
0000
1001
0020
0000
1000
0000
0032
0000
0100
0000
0213
0000
0001
0000
,
1300
0000
0010
0100
0000
0000
1001
0000
0000
0000
1010
0000
0100
0000
0010
1000
,
1001
0000
1000
0010
1002
0010
0100
0000
2103
0000
0001
0010
3201
0010
0001
0000
,
0321
0000
0001
1230
0010
1000
0321
0000
1031
0000
1020
0100
1032
0010
2103
0000
,
3110
0000
0010
1000
0102
1000
0010
0000
2103
0000
0001
0100
3021
1000
0100
0000
,
2031
0000
0000
0000
0000
0000
0100
0000
0000
3021
0000
0000
0100
0000
0000
0001
0000
0000
1230
0000
0000
0010
0000
0000
1301
0000
0000
0000
0110
0000
0000
0000
0110
0000
0000
0000
1001
0000
0000
0010
0000
0000
0100
0000
0000
0010
0000
0000
,
0101
0000
0001
0010
0001
0100
0010
0000
1001
0000
0001
0100
0010
1000
0100
0000
,
1100
0000
1000
0100
1000
0010
0100
0000
0101
0000
0001
0010
0001
1000
0100
0000
,
1010
0000
0100
0010
0100
0001
0010
0000
1001
0000
0010
0100
0010
1000
0100
0000
,
1100
0000
1000
0010
0100
0001
0010
0000
0011
0000
0100
0010
1000
0010
0100
0000
,
0101
0000
0001
0010
0001
1000
0100
0000
1010
0000
1000
0100
1000
0001
0010
0000
,
0101
0000
0001
0010
0001
0100
0010
0000
0110
0000
0100
0010
0100
0001
0010
0000
,
1001
0000
0100
0010
0100
0001
0010
0000
0011
0000
0001
0100
0010
1000
0100
0000
,
0101
0000
0100
0010
1000
0100
1000
0000
1100
0000
1000
0010
0100
0001
0010
0000
,
0101
0000
0100
0010
1000
0010
0100
0000
0110
0000
0010
1000
0100
1000
0010
0000
,
0011
0000
0001
0010
0001
0100
0010
0000
1010
0000
0100
0010
0100
0001
0010
0000
,
1001
0000
0001
0100
0010
0100
0001
0000
1010
0000
0100
0010
0100
0001
0010
0000
,
1001
0000
1000
0100
1000
0010
0100
0000
0110
0000
0010
0100
0101
0000
0011
0000
,
1002
0000
1000
2013
0100
0001
3021
0000
0131
0000
0201
0010
2301
0100
3012
0000
,
1023
0000
1000
0132
1000
0010
2103
0000
3101
0000
0201
0010
0302
1000
2013
0000
,
3120
0000
0100
2031
0010
0001
3102
0000
1103
0000
0120
1000
0132
1000
2013
0000
,
3120
0000
0100
0231
0001
1000
0312
0000
1103
0000
2010
0010
3120
0000
2031
0000
,
3021
0000
0001
0231
0010
1000
0312
0000
1103
0000
2010
0010
3201
0001
0321
0000
,
2031
0000
0010
3102
0010
1000
0123
0000
1130
0000
2010
0010
3120
0100
0231
0000
,
1302
0000
0010
1203
0010
1000
0312
0000
1013
0000
2100
0010
3201
0001
2310
0000
,
3021
0000
0001
1230
0010
1000
1302
0000
1103
0000
2010
0010
3201
0000
1320
0100
,
2031
0000
0001
3120
0001
0100
2031
0000
3110
0000
0201
0001
2310
0001
3102
0000
,
0213
0000
0010
1302
0100
1000
0213
0000
1310
0000
2010
0100
3102
0100
2013
0000
,
3210
0000
0010
1302
0100
1000
0213
0000
1301
0000
0201
0010
2301
0100
3210
0000
,
1320
0000
0000
0000
0000
0000
1000
0000
0000
0231
0000
0000
1000
0000
0000
0001
0000
0000
1302
0000
0000
0000
0000
0000
0113
0000
0000
0000
1001
0000
0000
0000
0110
0000
0000
0000
1001
0000
0000
0010
0000
0000
0100
0000
0000
0001
0000
0000
,
2001
0000
0100
0010
3100
0001
0010
0000
0001
0000
1000
0010
0100
0010
1000
0000
,
1000
0000
0110
0100
1001
1000
0101
0000
0110
0000
0101
0001
1001
0100
0010
0000
,
1000
0000
1010
0010
0110
0100
1001
0000
0110
0000
1001
1000
1100
0001
1001
0000
,
0110
0000
0010
1000
0100
1000
0001
0000
0101
0000
0001
0010
0001
1000
0100
0000
,
0110
0000
0010
1000
0100
1000
0010
0000
1010
0000
1000
0100
1000
0001
0010
0000
,
0101
0000
0001
0010
0001
0100
0010
0000
1010
0000
1000
0100
1000
0010
0100
0000
,
0101
0000
0100
0010
0100
0001
0010
0000
1001
0000
0100
0010
0100
0001
0010
0000
,
0011
0000
0001
0100
0010
1000
0100
0000
1100
0000
1000
0010
0100
0001
0010
0000
,
0101
0000
0000
0010
0000
0000
1000
0000
0000
0000
0001
0000
1000
0000
0100
1000
,
1000
0000
0000
0100
0000
0000
1000
0000
0000
0000
0001
0000
0010
0000
1000
0000
,
0001
0000
0000
0100
0000
0000
0010
0000
0000
0000
0100
0000
1000
0000
0010
0000
,
0100
0001
0000
1000
0000
0010
0100
1100
,
1200
0000
1000
2310
0100
0001
3021
0000
0131
0000
0201
0010
2301
0100
3012
0000
,
1023
0000
1000
0132
1000
0010
2103
0000
3101
0000
0201
0010
0302
1000
2013
0000
,
3120
0000
0100
2031
0010
0001
3102
0000
1103
0000
0120
1000
0132
1000
2013
0000
,
3120
0000
0100
0231
0001
1000
0312
0000
1103
0000
2010
0010
3120
0100
2031
0100
,
3021
0000
0001
0231
0010
1000
0312
0000
1103
0000
2010
0010
3201
0001
0321
0000
,
2031
0000
0010
3102
0010
1000
0123
0000
1130
0000
2010
0010
3120
0100
0231
0000
,
1302
0000
0010
1203
0010
1000
0312
0000
1013
0000
2100
0010
3201
0001
2310
0000
,
3021
0000
0001
1230
0010
1000
1302
0000
1103
0000
2010
0010
3201
0000
1320
0100
,
2031
0000
0001
3120
0001
0100
2031
0000
3110
0000
0201
0001
2310
0001
3102
0000
,
0213
0000
0010
1302
0100
1000
0213
0000
1310
0000
2010
0100
3102
0100
2013
0000
,
3210
0000
0010
1302
0100
1000
0213
0000
1301
0000
0201
0010
2301
0100
3210
0000
,
1320
0000
1000
0231
1000
0001
1302
0000
0113
0000
1000
0000
1010
0000
1000
0000
,
2100
0000
0001
3120
0001
0100
2031
0000
3110
0000
0201
0001
2310
0001
3102
0000
,
0213
0000
0010
1302
0100
1000
0213
0000
1310
0000
2010
0100
3102
0100
2013
0000
,
3210
0000
0010
1302
0100
1000
0213
0000
1301
0000
0201
0010
2301
0100
3210
0000
,
1320
0000
0000
0000
0000
0000
1000
0000
0000
0231
0000
0000
1000
0000
0000
0001
0000
0000
1302
0000
0000
0000
0000
0000
0113
0000
0000
0000
1001
0000
0000
0000
0110
0000
0000
0000
0110
0000
0000
1000
0000
0000
0100
0000
0000
0010
0000
0000
,
0101
0000
0001
0010
0001
0100
0010
0000
1001
0000
0001
0100
0010
1000
0100
0000
,
1100
0000
1000
0100
1000
0010
0100
0000
0101
0000
0001
0010
0001
1000
0100
0000
,
1010
0000
0100
0010
0100
0001
0010
0000
1001
0000
0010
0100
0010
1000
0100
0000
,
1100
0000
1000
0010
0100
0001
0010
0000
0011
0000
0100
0010
1000
0010
0100
0000
,
0101
0000
0001
0010
0001
1000
0100
0000
1010
0000
1000
0100
1000
0001
0010
0000
,
0101
0000
0001
0010
0001
0100
0010
0000
0110
0000
0100
0010
0100
0001
0010
0000
,
1001
0000
0100
0010
0100
0001
0010
0000
0011
0000
0001
0100
0010
1000
0100
0000
,
0101
0000
0100
0010
1000
0100
1000
0000
1100
0000
1000
0010
0100
0001
0010
0000
,
0102
1000
0010
0100
1000
0000
0100
0000
0010
0100
0010
1000
0100
0000
0100
0000
,
1023
0100
0001
1000
0100
0000
1000
0000
0001
0100
1000
0100
0001
0000
0001
0000
,
0231
1000
0001
1000
0010
0000
0001
0000
1000
0010
0001
0010
1000
0000
1000
0000
,
2310
0100
0001
0010
0100
0000
0010
0000
0100
0010
0001
0010
0001
0000
0100
0000
,
3211
1000
0001
0010
0001
0000
1000
0000
0001
0010
1000
0010
1000
0000
0001
0000
,
0321
1000
0001
0100
1000
0000
0100
0000
1000
0001
0100
0001
1000
0000
0100
0000
,
1032
0100
0010
0100
1000
0000
0010
0000
1000
0010
0100
0010
1000
0000
0100
0000
,
1023
0100
0001
1000
0001
0000
0100
0000
2002
0000
0000
0000
0000
0000
0000
3033
,
1001
0000
0000
0110
0000
0000
0100
0000
0000
0000
0010
0000
0010
0000
1001
0000
,
0110
0000
0000
1001
0000
0000
1000
0000
0000
0000
0001
0000
1001
0000
1000
0000
,
1100
0000
0000
1010
0000
0000
0110
0000
0000
0000
0101
0000
0001
0000
0011
0000
,
0101
0000
0000
0100
0000
0000
0110
0000
1001
0000
1000
0000
1100
0000
0011
0000
,
1002
0010
0100
0023
1000
0100
2031
0000
3001
0010
2001
0100
3012
1000
0123
0000
,
1032
0000
1000
2013
0100
0001
3120
0000
0131
0000
0102
0010
1023
0100
2130
0000
,
3201
0000
0001
2300
0010
0001
3102
0000
1103
0000
2001
0010
3201
0001
2310
0000
,
3201
0000
0000
0000
0000
0000
0001
0000
0000
2310
0000
0000
0010
0000
0000
0100
0000
0000
3201
0000
0000
0000
0000
0000
1301
0000
0000
0000
0110
0000
0000
0000
0110
0000
0000
0000
1001
0000
0000
0010
0000
0000
0100
0000
0000
0001
0000
0000
,
2001
0000
0100
0010
3100
0001
0010
0000
0001
0000
1000
0010
0100
0010
1000
0000
,
1000
0000
0110
0100
1001
1000
0101
0000
0110
0000
0101
0001
1001
0100
0010
0000
,
1000
0000
1010
0010
0110
0100
1001
0000
0110
0000
1001
1000
1100
0001
1001
0000
,
0110
0000
0010
1000
0100
1000
0001
0000
0101
0000
0001
0010
0001
1000
0100
0000
,
0110
0000
0010
1000
0100
1000
0010
0000
1010
0000
1000
0100
1000
0001
0010
0000
,
0101
0000
0001
0010
0001
0100
0010
0000
1010
0000
1000
0100
1000
0010
0100
0000
,
0101
0000
0100
0010
0100
0001
0010
0000
1001
0000
0100
0010
0100
0001
0010
0000
,
0011
0000
0001
0100
0010
1000
0100
0000
1100
0000
1000
0010
0100
0001
0010
0000
,
0101
0000
0001
0010
2001
0100
0010
0000
3102
0000
1000
0010
0213
0001
0010
0000
,
1302
0000
1000
2013
0100
0001
3210
0000
0311
0000
1002
0100
1023
1000
0132
0000
,
1103
0000
0100
1000
0102
1000
0010
0000
2103
0000
0001
0010
3201
0010
0001
0000
,
0321
0000
0001
0132
0010
1000
0213
0000
1310
0000
1020
0100
2031
0001
3210
0000
,
1301
0000
0001
0010
0201
0010
0001
0000
1302
0000
0010
0100
1203
0000
0001
0010
,
2301
0000
0001
3210
0010
1000
0312
0000
1103
0000
0120
1000
2031
0000
3201
0010
,
0311
0000
0001
0100
2010
0100
0001
0000
3102
0000
0010
1000
1203
0001
0010
0000
,
1302
0000
0000
0000
0000
0000
0010
0000
0000
2103
0000
0000
0001
0000
0000
0100
0000
0000
3021
0000
0000
0000
0000
0000
1031
0000
0000
0000
0110
0000
0000
0000
0110
0000
0000
0000
1001
0000
0000
0000
0000
0000
0000
0000
0000
0000
0000
0000
;
